#TITLE:I Love Rock 'N' Roll;
#SUBTITLE:;
#ARTIST:Brittney Spears;
#TITLETRANSLIT:;
#SUBTITLETRANSLIT:;
#ARTISTTRANSLIT:;
#CREDIT:;
#BANNER:;
#BACKGROUND:;
#LYRICSPATH:;
#CDTITLE:;
#MUSIC:I Love Rock N Roll.mp3;
#MUSICLENGTH:94.902;
#OFFSET:-0.040;
#SAMPLESTART:53.925;
#SAMPLELENGTH:12.000;
#SELECTABLE:YES;
#BPMS:0.000=90.000;
#STOPS:;
#BGCHANGES:;
#FIRSTBEAT:8.000;

#LASTBEAT:141.000;

#SONGFILENAME:Songs/EXTRA/I Love Rock N Roll/I Love Rock N Roll.sm;

#HASMUSIC:1;

#HASBANNER:0;


//---------------dance-single - MANIAC----------------
#NOTES:
     dance-single:
     MANIAC:
     hard:
     7:
     0.446,0.501,0.801,0.000,0.042,220.000,76.000,0.000,0.000,0.000:  // measure 1
0000
0000
0000
0000
,  // measure 2
0000
0000
0000
0000
,  // measure 3
0010
0100
0110
0000
0010
0100
0101
0000
,  // measure 4
0010
0100
1100
0000
0010
0100
0010
0100
,  // measure 5
0110
0000
1000
1000
1100
0000
0010
0010
,  // measure 6
0011
0000
0000
0000
0001
1000
0001
0000
0100
1000
0000
0000
0010
0000
1000
0000
,  // measure 7
1100
0000
0010
0100
0110
0000
0001
0010
,  // measure 8
0110
0000
0000
0000
0100
1000
0100
0000
0010
0001
0000
0000
0010
0000
0001
0000
,  // measure 9
0011
0000
0001
1000
1001
0000
0100
0010
,  // measure 10
0110
0000
0000
0000
0010
0001
1000
0000
0001
1000
0000
0000
0100
0000
0010
0000
,  // measure 11
0110
0000
0010
1000
1100
0000
0010
0001
,  // measure 12
0101
1100
1010
0101
,  // measure 13
0011
0000
0100
0100
1000
0100
0100
0100
,  // measure 14
1000
0100
0100
0100
0010
0100
0100
0100
,  // measure 15
0001
0100
0100
0100
1000
0100
0100
0100
,  // measure 16
0010
0100
0100
0100
0001
0001
1000
1000
,  // measure 17
0100
0100
0010
0010
0110
0000
1000
1000
,  // measure 18
1010
0000
0100
0100
0101
0000
0010
0010
,  // measure 19
0110
0000
1000
0010
1010
0000
0010
0001
,  // measure 20
0011
0000
0100
1000
1100
0000
0100
0001
,  // measure 21
0101
0000
0001
0001
1100
0000
1000
1000
,  // measure 22
0110
0000
0010
0010
0101
0000
1000
1000
,  // measure 23
0110
0000
0010
0010
0101
0000
1000
1000
,  // measure 24
0011
0000
0100
0100
1010
0000
0010
1000
,  // measure 25
1010
1000
0101
0000
0110
0100
0011
0000
,  // measure 26
1010
1000
0101
0000
0101
0010
1010
0000
,  // measure 27
0101
0110
1010
0000
0011
0110
1100
0000
,  // measure 28
0110
1010
1001
0000
0101
1100
1010
0100
,  // measure 29
1100
0000
0001
0011
0110
0000
0001
0010
,  // measure 30
0011
0000
0101
1100
1010
0000
0001
0001
,  // measure 31
1010
0110
0010
0010
0110
0000
1000
0001
,  // measure 32
0011
0000
1000
0010
0110
0110
1000
0000
,  // measure 33
0001
0000
0010
0000
0110
0000
0000
0000
0001
0000
1000
0000
0010
0100
0010
0000
,  // measure 34
1001
0001
0101
0101
1000
0010
0101
0000
,  // measure 35
0010
1000
0011
0000
0100
1000
0110
0000
,  // measure 36
1001
0000
0001
1000
0101
0000
0000
0000
0000
0000
0000
0000
0000
0000
0000
0000
;

//---------------dance-single - ANOTHER----------------
#NOTES:
     dance-single:
     ANOTHER:
     medium:
     6:
     0.366,0.501,0.211,0.021,0.000,221.000,20.000,2.000,0.000,0.000:  // measure 1
0000
0000
0000
0000
,  // measure 2
0000
0000
0000
0000
,  // measure 3
0100
1000
0010
0000
0100
0100
0001
0000
,  // measure 4
0010
0100
1000
0000
0001
0001
0100
0100
,  // measure 5
0010
0000
1000
0100
0010
0000
0001
0100
,  // measure 6
0010
0000
0010
1000
0010
1000
0001
0001
,  // measure 7
0100
0000
1000
1000
0100
0000
0010
0010
,  // measure 8
0001
0000
1000
1000
0010
0000
0100
0100
,  // measure 9
1000
0000
1000
1000
0001
0000
0010
0010
,  // measure 10
0100
0000
0001
0001
0010
0000
0100
0100
,  // measure 11
0010
0000
0100
0100
1000
0000
0010
0010
,  // measure 12
0100
0000
0002
0000
1000
0000
1000
1000
,  // measure 13
1003
0000
0100
0000
0010
0000
0001
1000
,  // measure 14
0010
0000
1000
0001
1000
0000
0001
1000
,  // measure 15
0001
0000
1000
0001
1000
0000
0001
1000
,  // measure 16
0001
0000
0020
0000
0001
0000
0001
0001
,  // measure 17
0031
0000
1000
0100
0010
0000
0001
0100
,  // measure 18
0010
0000
1000
0100
0010
0000
0001
0100
,  // measure 19
0010
0010
0010
0010
1000
0000
0001
0010
,  // measure 20
0001
0000
1000
0010
0100
0001
1000
0001
,  // measure 21
1001
0000
0100
0100
0010
0000
1000
1000
,  // measure 22
0010
0000
0001
0001
0010
0000
0100
0100
,  // measure 23
1000
0000
0001
0001
0010
0000
0100
0100
,  // measure 24
0010
0000
0001
0001
1000
0000
0010
0010
,  // measure 25
0001
0001
1000
0000
0010
0010
0100
0000
,  // measure 26
0001
0001
1000
0000
0010
1000
0100
0010
,  // measure 27
0100
1000
0010
0100
0001
1000
0100
0010
,  // measure 28
0001
0100
1000
0010
0001
0010
0001
0010
,  // measure 29
0100
0001
0100
0001
1000
0100
0010
0001
,  // measure 30
0100
1000
0001
0100
1000
0010
0100
0001
,  // measure 31
1000
0010
0100
0001
1001
0011
1010
1001
,  // measure 32
0110
1001
0110
1001
1001
0101
0001
1000
,  // measure 33
0010
0100
0110
1000
0001
0100
0010
0110
,  // measure 34
1000
0001
0001
0011
0100
1000
0010
0110
,  // measure 35
1000
0001
0100
0101
0101
1001
0100
1000
,  // measure 36
0010
0110
0110
0000
0000
0000
0000
0000
;

//---------------dance-single - BASIC----------------
#NOTES:
     dance-single:
     BASIC:
     easy:
     2:
     0.089,0.111,0.084,0.011,0.000,50.000,8.000,1.000,0.000,0.000:  // measure 1
0000
0000
0000
0000
,  // measure 2
0000
0000
0000
0000
,  // measure 3
0110
0000
0000
0000
,  // measure 4
1010
0000
0000
0101
,  // measure 5
0000
0000
0000
0110
,  // measure 6
0000
0000
0000
0100
,  // measure 7
0000
0000
0000
0000
,  // measure 8
0000
0000
0000
0001
,  // measure 9
0000
0000
0000
0000
,  // measure 10
0000
0000
0000
1000
,  // measure 11
0000
0000
0000
0010
,  // measure 12
0000
0002
0000
0000
,  // measure 13
0000
0000
0000
0000
,  // measure 14
0000
1003
0000
0010
,  // measure 15
0000
0000
0100
0000
,  // measure 16
0100
0000
0001
0000
,  // measure 17
0000
1001
0000
0000
,  // measure 18
0000
1010
0000
0000
,  // measure 19
0000
1001
0000
0000
,  // measure 20
0000
0100
0000
0010
,  // measure 21
0100
0000
0001
0000
,  // measure 22
0010
0000
1000
0000
,  // measure 23
0100
0000
1000
0000
,  // measure 24
0010
0000
0001
0000
,  // measure 25
0010
0000
1000
0000
,  // measure 26
0100
0000
0001
0000
,  // measure 27
0100
0000
1000
0000
,  // measure 28
0010
0000
0001
0000
,  // measure 29
0010
0000
1000
0000
,  // measure 30
0100
0000
1000
0000
,  // measure 31
0010
0000
0001
0000
,  // measure 32
0010
0000
1000
0000
,  // measure 33
0100
0000
1000
0000
,  // measure 34
0010
0000
0001
0000
,  // measure 35
0100
0000
1000
0000
,  // measure 36
0000
1001
0000
0000
;
